<svg xmlns="http://www.w3.org/2000/svg"><defs><font id="caladearegular" horiz-adv-x="554"><font-face ascent="778" descent="-222"/><glyph horiz-adv-x="0"/><glyph horiz-adv-x="333"/><glyph horiz-adv-x="220"/><glyph horiz-adv-x="220"/><glyph horiz-adv-x="220"/><glyph unicode="!" horiz-adv-x="286" d="M99 203l2 202q0 163-18 241 21 17 60 17 55 0 55-75 0-33-21-172.5T151 212zm27-94q53 0 53-58T126-7 73 51t53 58z"/><glyph unicode="&quot;" horiz-adv-x="393" d="M97 471Q73 603 73 628t12.5 37.5 33 12.5 33.5-12.5 13-29.5q0-29-18-131l-6-34H97zm160 0q-24 132-24 157t12.5 37.5 33 12.5 33.5-12.5 13-29.5q0-29-18-131l-6-34h-44z"/><glyph unicode="#" horiz-adv-x="619" d="M302 5l37 169H215L175-7 125 5l37 169H43l10 53h120l28 126H95l10 53h107l40 179 51-12-37-167h124l40 179 50-12-37-167h120l-10-53H431l-27-126h107l-10-53H392L353-7zm-48 348l-28-126h125l28 126H254z"/><glyph unicode="$" horiz-adv-x="506" d="M430 528q0-28-12-44.5T382.5 467 337 483q11 17 11 39.5t-17.5 40T283 585V384q119-50 145-109 12-29 12-67 0-72-42-118T283 34v-92l-6-6q-16 0-34 5v91q-86 0-135 33.5T59 158q0 22 16 36.5t41.5 14.5 40.5-18q-6-19-6-35 0-33 25.5-54.5T243 79v224q-33 14-48 20.5t-42 23-39 32.5q-35 44-35 104.5T125 587t118 47v92l6 6q22 0 34-4v-95q63-6 105-36t42-69zm-269-39q0-30 21-50t61-38v185q-82-8-82-97zm197-309q0 63-75 104V83q75 17 75 97z"/><glyph unicode="%" horiz-adv-x="890" d="M193-19l449 725 50-30L244-49zm-50.5 397.5q15.5-37.5 59-37.5t58.5 37 15 114-15 114-58.5 37-59-37.5T127 492t15.5-113.5zM201 302q-71 0-106 50T60 492t35 140 106 50 106-50 35-140-35-140-106-50zM624.5 69.5Q640 32 683.5 32T742 69t15 114-15 114-58.5 37-59-37.5T609 183t15.5-113.5zM683-7q-71 0-106 50t-35 140 35 140 106 50 106-50 35-140-35-140T683-7z"/><glyph unicode="&amp;" horiz-adv-x="687" d="M44 196q0 143 138 190-85 38-85 132 0 76 53 114t132.5 38 130-31.5T463 552q0-30-15.5-48T406 486t-44 26q14 22 14 41 0 78-92 78-48 0-74.5-30T183 523.5t27-79 86-32.5v-48q-73-9-116.5-52.5T136 195t47.5-113 134-40 148 53T527 251q0 64-23 133-75-4-75-49 0-24 20-41-19-19-42.5-19T369 292t-14 43q0 91 159 91 54 0 78.5 11.5T617 475t-19 43q19 19 42 19t37-15.5 14-40.5q0-93-139-96 29-70 29-148 0-117-73.5-181t-198-64-195 54T44 196z"/><glyph unicode="'" horiz-adv-x="237" d="M97 467Q73 599 73 624t12.5 37.5 33 12.5 33.5-12.5 13-29.5q0-29-18-131l-6-34H97z"/><glyph unicode="(" horiz-adv-x="382" d="M88 282q0 80 20 154t49 122q61 99 107 136l20 16 25-25Q160 529 160 283t149-402l-25-26q-28 21-65 64T156 7.5t-47 120T88 282z"/><glyph unicode=")" horiz-adv-x="382" d="M73-119Q222 37 222 282.5T73 685l25 25q8-6 21-17t47-51 60-85.5 47-120T294 282t-20-153.5T225 7q-59-98-107-136l-20-16z"/><glyph unicode="*" horiz-adv-x="427" d="M192 408q-13-19-30-19t-28 10.5-11 25.5 10 24.5 30.5 24.5 35.5 38q-28-3-56.5-15.5t-41-12.5T79 494.5 69 521t10 26 22.5 10 41-13 57.5-16q-15 21-35.5 36.5t-31 26-10.5 25 11 25 30 10.5 25-12.5 10-44 15-56.5q16 34 20 82 2 31 34 31 16 0 26.5-10.5t10.5-28-30-39.5-46-44q26 3 55.5 15.5t42 12.5 23-10 10.5-26-10.5-26.5T326 484t-42.5 12.5T228 512q16-22 36.5-37t30.5-24.5 10-25-11-26-30.5-10.5-24.5 11-8 43-17 61q-12-27-15-58t-7-38z"/><glyph unicode="+" d="M72 259v53h172v178h60V312h177v-53H304V82h-60v177H72z"/><glyph unicode="," horiz-adv-x="205" d="M51 11Q40 24 40 47t17 37.5T101.5 99t45-20T164 26q0-97-101-161l-24 29q20 17 32 41.5T83-13 63 14q-5 0-12-3z"/><glyph unicode="-" horiz-adv-x="332" d="M52 231v54h229v-54H52z"/><glyph unicode="." horiz-adv-x="205" d="M102 109q53 0 53-58T102-7 49 51t53 58z"/><glyph unicode="/" horiz-adv-x="490" d="M77-112l313 811 55-21-313-810z"/><glyph unicode="0" d="M172 108.5Q204 42 280.5 42t109 66.5 32.5 223-32.5 223T281 621t-108.5-66T140 332t32-223.5zM281-7Q168-7 108 81T48 332.5t60 251T281 671t172.5-87T513 332.5t-59.5-252T281-7z"/><glyph unicode="1" d="M269 572H135v43q101 9 189 56l33-15V64q33-18 125-30l-3-34H131l2 34q89 10 136 30v508z"/><glyph unicode="2" d="M486 74V0H71v58q168 159 232 255t64 183q0 125-103 125-47 0-74-23t-27-58.5 21-62.5q-22-22-49.5-22t-46 19T70 531q0 69 55.5 104.5T270 671t139.5-48T460 487t-65-184.5T176 74h310z"/><glyph unicode="3" d="M214 328v44q159 5 159 136 0 55-24.5 84t-69 29-71-23-26.5-54 11-45q-24-18-48.5-18t-37 17.5T95 546q0 53 53.5 89t134 36T414 626t51-118q0-115-131-157 139-37 139-170 0-83-56.5-135.5T268.5-7t-145 36.5T70 130q0 25 16 40.5t41 15.5 48-17q-8-22-8-42 0-39 29.5-62t80-23T356 79.5 385 184t-45 105.5T214 328z"/><glyph unicode="4" d="M330 183H42l-7 34 282 450h101V238h95v-55h-95V64q31-19 87-27l-5-37H232l6 37q58 7 92 27v119zm0 55v348L114 238h216z"/><glyph unicode="5" d="M137 670q83-2 167-2t133 1l20-14-8-59H180V384q54 21 110 21 93 0 149-55.5T495 201 434.5 50t-151-58T139 28.5 85 123q0 29 15.5 45.5t43 16.5 47.5-16q-9-25-9-41 0-38 27-61.5T280 43q61 0 94.5 41T408 198.5t-34 114-96.5 40.5T148 313l-31 33v310z"/><glyph unicode="6" d="M163 348q64 41 144 41t134.5-54.5T496 190 437 45 278-10Q66-10 66 257q0 169 83 274t245 142l17-43q-111-29-171.5-97.5T163 348zm209.5-52.5Q341 333 281.5 333T158 284q-1-9-1-26 0-218 122-218 59 0 92 40t33 109-31.5 106.5z"/><glyph unicode="7" d="M134 486q-6-2-15.5-2T93 486q0 2-7.5 72.5T78 653l14 15q90-1 191-1l210 1 18-43L228 0h-76l278 594H155q-18-51-21-108z"/><glyph unicode="8" d="M71 172q0 108 120 183-95 51-95 150 0 75 52.5 120.5T287 671t135-42.5T471 513q0-86-99-147 129-65 129-185 0-86-57.5-137t-158-51T128 39.5 71 172zm91 6q0-64 34-100t92-36 90.5 36 32.5 90.5-33 86.5-114 67l-23 10q-79-52-79-154zm46.5 415Q181 565 181 521t28.5-70T314 393l7-4q64 46 64 125 0 48-27.5 77.5T283 621t-74.5-28z"/><glyph unicode="9" d="M390 313q-64-41-144-41t-134.5 54.5T57 471t59 145 159 55q212 0 212-267 0-169-83-274T159-12l-17 43q111 29 171.5 97.5T390 313zm-209.5 52.5q31.5-37.5 91-37.5T395 377q1 9 1 26 0 218-122 218-59 0-92-40t-33-109 31.5-106.5z"/><glyph unicode=":" horiz-adv-x="264" d="M131 109q53 0 53-58T131-7 78 51t53 58zm0 334q53 0 53-58t-53-58-53 58 53 58z"/><glyph unicode=";" horiz-adv-x="264" d="M80 11Q69 24 69 47t17 37.5T130.5 99t45-20T193 26q0-97-101-161l-24 29q20 17 32 41.5T112-13 92 14q-4 0-12-3zm51 432q53 0 53-58t-53-58-53 58 53 58z"/><glyph unicode="&lt;" d="M64 260v52l383 181 25-51-329-156 329-157-25-50z"/><glyph unicode="=" d="M62 187v53h430v-53H62zm0 144v52h430v-52H62z"/><glyph unicode="&gt;" d="M485 312v-52L102 79l-25 50 329 157L77 442l25 51z"/><glyph unicode="?" horiz-adv-x="422" d="M107 221q-13 18-13 49.5t17.5 61.5 42.5 51.5 50 42.5q59 51 59 115 0 33-23.5 53T181 614q-70 0-70-52 0-17 11-36-20-29-48-29-50 0-50 53t46 79.5T184 656t113-30.5 45-96.5q0-38-16.5-71.5t-40-56.5-47.5-45q-57-51-57-93 0-20 6-44-20-16-43.5-16T107 221zm46-112q53 0 53-58T153-7t-53 58 53 58z"/><glyph unicode="@" horiz-adv-x="885" d="M277 139q0 122 164 136l70 6v68q0 47-17.5 68.5t-53 21.5-54.5-12-19-33 29-31q0-49-56-49-25 0-40 16t-15 40q0 49 42 77.5T440.5 476t113-33.5T595 349V139q0-64 64-64 42 0 66 65t24 158q0 133-74.5 218.5t-219 85.5-230-101T140 251.5 222.5 3 441-97q96 0 159 38l22-35q-76-48-181-48-179 0-284.5 106.5T51 245t109.5 287 290 113 284-97.5T838 298q0-119-48-194.5T653 28q-109 0-133 53-57-49-120-49-123 0-123 107zm83 8q0-72 56-72 44 0 95 51v112l-66-5q-39-3-62-27t-23-59z"/><glyph unicode="A" horiz-adv-x="623" d="M13 0l5 37q45 7 71 26l187 604h60L542 62q25-18 66-25l-4-37H354l5 37q58 7 92 27l-51 151H198L152 64q33-19 97-27l-4-37H13zm282 528l-81-261h169z"/><glyph unicode="B" horiz-adv-x="611" d="M305 667q229 0 229-166 0-114-117-147 69-20 107-62.5T562 188q0-87-60.5-137.5T332 0H42q1 13 5 37 58 7 92 27v540q-35 20-98 27l5 36h259zm-78-340V53q59-4 105-4 139 0 139 138 0 67-41.5 103.5T306 327h-79zm77 294q-25 0-77-4V376h80q72 0 106 30t34 93-34.5 92.5T304 621z"/><glyph unicode="C" horiz-adv-x="562" d="M312-7Q180-7 117 76T54 333.5 117.5 592 313 676q86 0 142.5-37.5T512 544q0-33-17-56t-39-23-38 11-22 28q19 26 19 53.5t-28 46-74 18.5q-81 0-120-70.5T154 335t38.5-214T313 53q52 0 101.5 24.5T489 135l35-38q-9-12-33.5-33T443 29Q384-7 312-7z"/><glyph unicode="D" horiz-adv-x="662" d="M260 667q175 0 262-80t87-254.5T521.5 79 254 0H41l5 37q61 8 91 26v541q-35 19-97 27l5 36h215zm14-50h-48V53q17-4 45-4 120 0 179 64.5t59 220T451 553t-177 64z"/><glyph unicode="E" horiz-adv-x="575" d="M490 515q-13-5-23-5t-20 2q-13 66-42 102H217V364l113 5q39 1 56 67h32V238h-32q-5 24-10 36t-17.5 24.5T329 312l-112 6V58h213q30 42 43 113 12 2 18 2t22-2L504 0H31l6 37q67 8 92 27v540q-38 20-98 27 4 24 5 36h446z"/><glyph unicode="F" horiz-adv-x="537" d="M490 515q-13-5-25.5-5t-17.5 2q-12 62-47 102H217V356l113 5q39 1 56 68h32V231h-32l-1 6q-16 65-56 67l-112 6V64q31-19 97-27l-4-37H31l6 37q67 8 92 27v540q-39 20-98 27 4 24 5 36h446z"/><glyph unicode="G" horiz-adv-x="611" d="M332-7Q185-7 122.5 80.5T60 334t63.5 254T333 676q115 0 177-56 34-32 34-71.5T526.5 487 487 465t-38 11-22 28q19 28 19 55.5t-31.5 45-83 17.5-87-22.5-53-65.5-24-89.5T161 334t6.5-110.5T191 134q35-88 141-88 71 0 123 37v175q-37 16-102 21l4 37 187 9V42Q455-7 332-7z"/><glyph unicode="H" horiz-adv-x="687" d="M481 317H206V64q36-20 98-27-4-24-5-37H25l6 37q52 7 87 27v540q-40 21-93 27 4 24 5 36h274l-6-36q-55-7-92-27V368h275v236q-39 20-98 27 4 24 5 36h273q-4-24-5-36-49-6-87-27V64q34-20 92-27l-4-37H383l6 37q58 7 92 27v253z"/><glyph unicode="I" horiz-adv-x="324" d="M20 0l6 37q58 7 92 27v540q-39 20-98 27 4 24 5 36h277q-1-12-5-36-54-7-91-27V64q33-19 97-27l-5-37H20z"/><glyph unicode="J" horiz-adv-x="307" d="M198 16q0-88-50.5-138.5T3-198l-11 30q54 25 86 63.5T110 1v603q-39 20-98 27l5 36h277q-1-12-5-36-56-7-91-27V16z"/><glyph unicode="K" horiz-adv-x="629" d="M26 0l6 37q58 7 91 27v540q-37 20-97 27 4 24 5 36h279l-6-36q-55-6-92-27V64q36-20 98-27-4-24-5-37H26zm390 602q0 27-62 29l6 36h235l-4-36q-61-4-91-32L314 366 532 64q29-21 85-26l-6-38H451q-2 27-16 48L222 348l188 234q6 12 6 20z"/><glyph unicode="L" horiz-adv-x="537" d="M233 58h187q30 44 43 113 7 3 17.5 3t22.5-3L494 0H48l6 37q59 7 90 27v540q-37 20-96 27 1 12 5 36h277l-5-36q-55-7-92-27V58z"/><glyph unicode="M" horiz-adv-x="815" d="M636 529h-4L429 0h-59L157 538h-4V64q33-19 97-27l-4-37H-7l5 37q58 7 91 27v540q-37 20-96 27l4 36h193l224-544 216 544h191q-4-24-5-36-55-6-92-27V64q33-19 97-27l-4-37H539q4 27 5 37 57 7 92 27v465z"/><glyph unicode="N" horiz-adv-x="681" d="M569 0h-43L186 515V64q33-19 97-27l-4-37H25l6 37q58 7 92 27v540q-39 20-98 27 4 24 5 36h159l315-476v413q-35 19-96 27 1 12 5 36h253q-4-24-5-36-55-6-92-27V0z"/><glyph unicode="O" horiz-adv-x="653" d="M237 65q36-23 85-23t80.5 16 50 41.5 29 65.5 14 78.5T499 333t-3.5 90-14 79-29.5 66q-42 58-125 58-108 0-143-90-30-76-30-202 0-124 30-202 17-44 53-67zM116.5 588q63.5 88 210 88t210-88.5 63.5-254-63.5-253T326.5-7t-210 88T53 334.5 116.5 588z"/><glyph unicode="P" horiz-adv-x="568" d="M298 667q222 0 222-185 0-104-68-146.5T254 293h-32V64q33-19 97-27l-4-37H37l6 37q57 7 91 27v540q-39 20-98 27 4 24 5 36h257zm132-183q0 141-142 141-32 0-66-6V338h32q176 0 176 146z"/><glyph unicode="Q" horiz-adv-x="653" d="M116.5 588q63.5 88 210 88t210-88.5 63.5-245-50.5-242T385-2q18-47 59-83.5t95-54.5v-6q0-15-10-24Q375-144 304-6 170 0 111.5 87.5T53 337.5 116.5 588zM237 65q36-23 85-23t80.5 16 50 41.5 29 65.5 14 78.5T499 333t-3.5 90-14 79-29.5 66q-42 58-125 58-108 0-143-90-30-76-30-202 0-124 30-202 17-44 53-67z"/><glyph unicode="R" horiz-adv-x="621" d="M300 667q229 0 229-176 0-132-138-165 34-22 62-86l79-176q30-20 84-26l-6-38H459l-87 223q-24 61-44 74.5T244 311h-20V64q28-18 97-27-4-24-5-37H39l5 37q58 7 92 27v540q-35 20-98 27l5 36h257zm-1-41q-34 0-75-7V357h31q184 0 184 136 0 133-140 133z"/><glyph unicode="S" horiz-adv-x="496" d="M340 596q-29 29-81.5 29T174 597.5 142 527t33-76 80-56.5 94-49 80-68.5 33-101q0-84-62-133.5T233-7q-43 0-98.5 16T52 45v164q22 5 49 5 12-96 36-148 46-23 105.5-23t94 32 34.5 79.5-32.5 80-78.5 55-92 47.5-78.5 67.5T57 505q0 76 55.5 123.5T257 676q114 0 185-45l-15-134q-12-3-23-3t-20 3q-15 70-44 99z"/><glyph unicode="T" horiz-adv-x="593" d="M84 499l-24-1q-13 0-20 1v172q132-4 302.5-4t210.5 4V499q-7-1-21.5-1t-22.5 1q-7 72-36 115-65 7-132 8V64q35-19 98-27-4-24-5-37H156l6 37q59 7 91 27v558q-77-1-131-7-36-50-38-116z"/><glyph unicode="U" horiz-adv-x="648" d="M558 216q0-107-58.5-165t-177-58-176 52T89 210v394q-39 20-97 27l4 36h280l-6-36q-57-10-90-27V210q0-88 36.5-126.5t115-38.5T452 89t42 127v388q-37 20-97 27 1 12 5 36h253l-5-36q-59-10-92-27V216z"/><glyph unicode="V" horiz-adv-x="604" d="M596 667l-6-36q-34-6-62-26L332 0h-48L68 604q-21 18-61 27l5 36h242l-6-36q-52-7-86-27l157-451 143 451q-40 21-91 27 4 24 5 36h220z"/><glyph unicode="W" horiz-adv-x="921" d="M901 667l-6-36q-33-6-60-25L662 0h-48L460 462 320 0h-48L80 605q-22 17-60 26l4 36h243l-6-36q-52-7-86-27l132-445 149 508h32l160-506 119 443q-40 21-91 27l5 36h220z"/><glyph unicode="X" horiz-adv-x="571" d="M262 667l-6-36q-49-7-80-27l122-192 120 192q-31 18-80 27 1 12 5 36h217l-5-36q-36-5-64-26L335 355 523 61q24-17 74-24-4-24-5-37H326q4 27 5 37 60 0 86 26L277 283 140 61q18-24 93-24l-4-37H-25q4 27 5 37 57 4 88 24l174 278L71 605q-22 16-61 26l5 36h247z"/><glyph unicode="Y" horiz-adv-x="570" d="M141 0l5 37q62 7 97 27v201L73 605q-24 18-62 26l5 36h247q-4-24-5-36-52-7-87-27l125-261 128 262q-38 20-89 26 1 12 5 36h220l-6-36q-36-7-61-26L331 277V64q34-19 102-27l-4-37H141z"/><glyph unicode="Z" horiz-adv-x="538" d="M98 502l-21-1q-12 0-17 1L48 648l26 24q120-5 200.5-5t215.5 5l9-40L144 52q27-1 112-1t133 1q47 56 66 129 12 2 20.5 2t22.5-2L489-3q-69 3-244.5 3T41-4l-3 50 346 569-39 1h-50q-59 0-149-2-34-30-48-112z"/><glyph unicode="[" horiz-adv-x="350" d="M292-140H111v849h181v-33l-113-10V-96l113-10v-34z"/><glyph unicode="\" horiz-adv-x="490" d="M355-125L49 671l56 21 306-796z"/><glyph unicode="]" horiz-adv-x="350" d="M239-140H58v34l113 10v762L58 676v33h181v-849z"/><glyph unicode="^" d="M251 674h52l181-318-50-25-157 273-156-273-51 25z"/><glyph unicode="_" horiz-adv-x="371" d="M371-112H0v54h371v-54z"/><glyph unicode="`" horiz-adv-x="285" d="M82 607q-25 22-25 37.5t11 26T95.5 681t29.5-17l83-116-24-24z"/><glyph unicode="a" horiz-adv-x="488" d="M174-7q-62 0-96 30t-34 89.5 48 97T231 253l82 6v81q0 50-21 73t-68 23q-83 0-83-45 0-26 30-37 0-48-57-48-26 0-42 16t-16 42q0 51 45.5 81.5t125 30.5T352 440t46-100V61q23-17 70-27l-4-34H326l-10 45Q260-7 174-7zm-42 123q0-82 67-82 53 0 114 58v126l-80-7q-47-4-74-29.5T132 116z"/><glyph unicode="b" horiz-adv-x="547" d="M298 476q102 0 149-64t47-174-56-177.5T278-7q-63 0-116 49-15-23-20-42H94v567q0 37-15 50.5T24 633l3 30q36 6 133 34l20-10V406q15 29 48.5 49.5T298 476zm101-311q4 31 4 69t-1.5 63-7.5 52.5-17 44.5q-25 39-70.5 39T236 414t-36-55q-20-61-20-154V85q57-50 99-50t67.5 17.5 37 49.5 15.5 63z"/><glyph unicode="c" horiz-adv-x="441" d="M257 476q69 0 111.5-29.5T411 370q0-23-15.5-41t-36-18-34.5 10-19 26q13 21 13 41.5t-17 36-49.5 15.5-58-16-38.5-46q-21-52-21-120t4-99 16-60q24-57 103-57 33 0 65 12t47 24l15 11 26-30q-7-7-20-18t-54.5-29.5T253-7Q140-7 91 54.5T42 238q3 238 215 238z"/><glyph unicode="d" horiz-adv-x="555" d="M238-7Q55-7 55 224q0 123 58 187.5T281 476q43 0 85-17v108q0 37-15 50.5T297 633l2 29q34 6 133 35l20-10V61q23-18 69-27l-3-34H374l-8 59Q324-7 238-7zm9 43q119 0 119 188v190q-38 20-88 20-64 0-99.5-55T143 225.5t25.5-144T247 36z"/><glyph unicode="e" horiz-adv-x="488" d="M152 243v-5q0-122 31-160 29-36 92-36 33 0 65 12t48 24l15 11 25-30q-7-7-20-18t-54-29.5T271-7Q157-7 108.5 54.5T60 232.5t53.5 180 154 63.5T408 424t43-154l-21-27H152zm113 193q-110 0-113-156l209 7q0 79-20.5 114T265 436z"/><glyph unicode="f" horiz-adv-x="303" d="M171 590l12-120h104v-53H183V62q23-17 81-28l-3-34H28l4 36q42 7 66 26v355H24l-5 35q52 5 79 18v54q0 83 36.5 134T247 709t115-25v-96h-55q-12 84-68 84-31 0-49.5-21.5T171 590z"/><glyph unicode="g" horiz-adv-x="494" d="M241 475q69 0 112-24 36 11 36 36.5T361 526q0 15 12.5 24.5T408 560t36-14 14-36q0-63-70-87 37-41 37-115t-49.5-117.5T241 147h-14l-42-52q2-15 15.5-21t48.5-7h42q92 0 135.5-41.5T470-80q0-139-212-139-106 0-159.5 34T45-97t17 77.5T122 28q-22 25-22 67l82 58q-59 14-91.5 54.5T58 308q0 167 183 167zm0-287q49 0 71 29t22 94-22 94.5-71 29.5-71-29.5-22-94.5 22-94 71-29zM267-1h-85q-45-29-45-79 0-98 120.5-98T378-80q0 79-111 79z"/><glyph unicode="h" horiz-adv-x="552" d="M94 567q0 37-15.5 50.5T24 633l3 30q36 6 133 34l19-10V408q53 68 127.5 68t115-36.5T462 338V62q22-18 70-28l-4-34H308l3 34q38 6 66 28v267q0 99-85 99-35 0-66-23.5T179 344V62q25-19 70-27l-4-35H24l4 37q42 6 66 25v505z"/><glyph unicode="i" horiz-adv-x="278" d="M104 349q0 37-15.5 50.5T34 415l3 29q38 7 132 35l20-11V61q25-18 70-27l-4-34H34l4 36q41 7 66 25v288zm90 249q0-58-52.5-58T89 598t52.5 58 52.5-58z"/><glyph unicode="j" horiz-adv-x="266" d="M189-33q0-134-55-168-24-15-65-15t-71.5 18.5T-33-139q0 23 13.5 39T18-84t36-20q-15-12-15-30t10-28.5T76-173q40 0 40 65 0 33-6 83.5T104 73v276q0 37-15.5 50.5T34 415l3 29q51 9 133 35l19-11V-33zm6 631q0-58-52.5-58T90 598t52.5 58 52.5-58z"/><glyph unicode="k" horiz-adv-x="524" d="M94 567q0 37-15.5 50.5T24 633l3 30q36 6 133 34l19-10V273l137 138q26 28 33 56h133l3-30q-69-3-110-43l-92-92L433 63q36-20 92-28l-4-35H378L225 244l-46-45V62q25-19 70-27l-4-35H24l4 37q42 6 66 25v505z"/><glyph unicode="l" horiz-adv-x="271" d="M93 567q0 37-15 50.5T23 633l3 30q36 6 133 34l19-10V62q25-19 70-27l-4-35H23l4 37q42 6 66 25v505z"/><glyph unicode="m" horiz-adv-x="832" d="M114 347q0 37-15 50.5T44 413l3 29q16 3 123 34l18-9 7-52q53 61 122 61 92 0 132-62 68 62 134.5 62t110-36.5T737 326V62q24-18 70-28l-4-34H584l2 34q38 6 66 28v267q0 99-79 99-32 0-60-20t-42-47V62q22-18 70-28l-4-34H317l3 34q38 6 66 28v267q0 99-79 99-35 0-66-24.5T200 350V62q23-18 69-28l-4-34H44l4 36q42 7 66 26v285z"/><glyph unicode="n" horiz-adv-x="558" d="M383 329q0 99-86 99-34 0-65-23.5T185 344V62q24-19 70-28l-4-34H30l4 36q43 7 66 26v285q0 37-15.5 50.5T30 413l3 29q13 2 122 34l18-9 9-62q23 33 58.5 52t73.5 19q73 0 113.5-36.5T468 338V62q22-18 70-28l-4-34H314l3 34q38 6 66 28v267z"/><glyph unicode="o" horiz-adv-x="531" d="M143 235q0-104 28.5-150T265 39t94.5 46T389 235t-29 149.5-94.5 45.5-94-45.5T143 235zm-90 0q0 118 53.5 179.5T265 476t158.5-61.5T477 235 423.5 55 265-7 106.5 55 53 235z"/><glyph unicode="p" horiz-adv-x="556" d="M105 348q0 37-15 50.5T36 414l3 29q13 2 122 34l18-10 9-61q41 70 131 70 183 0 183-232 0-122-58-186.5T276-7q-47 0-85 16v-158q25-19 69-27l-3-34H36l4 36q39 5 65 25v497zm206 85q-120 0-120-188V55q36-20 94-20t93.5 55T414 243t-25 144-78 46z"/><glyph unicode="q" horiz-adv-x="547" d="M249-7Q60-7 60 232q0 112 50 178t157 66q60 0 112-47l16 38h53v-618q25-18 70-27l-4-34H293l4 36q40 7 66 25V59Q321-7 249-7zm-96.5 309.5Q150 275 150 231t3-74 13-61q19-61 83.5-61t89 56T363 240v143q-49 51-93 51t-69-17.5-35.5-52-13-62z"/><glyph unicode="r" horiz-adv-x="414" d="M319 476q36 0 62.5-21t26.5-53-14.5-51-35-19-35.5 8.5-19 22.5q10 10 10 28 0 30-28 30t-56.5-40.5T201 294V62q27-18 79-28l-4-34H46l4 36q41 7 66 26v285q0 37-15.5 50.5T46 413l3 29q13 2 122 34l18-9 10-70q53 79 120 79z"/><glyph unicode="s" horiz-adv-x="430" d="M279 408.5Q260 435 217 435t-66-18-23-49 26-51 63-32.5 74-27 63-45 26-76.5q0-67-47-104.5T201-6q-35 0-80.5 11.5T52 32v123l53 7q6-73 27-113 32-10 75-10t69 22 26 53.5-25.5 50.5-62 30.5-73.5 26-62.5 46T53 353t44.5 88 128 34T363 449l-9-120h-52q-4 53-23 79.5z"/><glyph unicode="t" horiz-adv-x="338" d="M333 27q-50-37-115.5-37T128 18t-24 95v300H23v30q97 33 128 121h40v-97h128v-54H190V106q0-37 9.5-53T243 37t70 20z"/><glyph unicode="u" horiz-adv-x="552" d="M254-7Q93-7 93 154v195q0 37-15 50.5T24 415l2 29q34 6 133 35l20-10V143q0-105 86-105 26 0 55 19.5t51 59.5v232q0 37-15.5 50.5T301 415l3 29q34 6 133 35l19-10V62q22-19 69-27l-3-35H389l-10 63Q327-7 254-7z"/><glyph unicode="v" horiz-adv-x="504" d="M215 0L70 395q-11 30-71 42l2 30h223l-3-30q-44-6-62-22L265 96l106 319q-21 15-60 22l3 30h190l-3-30q-60-12-67-30L282 0h-67z"/><glyph unicode="w" horiz-adv-x="774" d="M219 0L81 395q-11 30-71 42l2 30h223l-3-30q-44-6-62-22l96-311 112 346h39l122-347 93 312q-19 15-59 22l3 30h189l-3-30q-60-12-67-30L552 0h-61L384 291 281 0h-62z"/><glyph unicode="x" horiz-adv-x="483" d="M-3 0l3 36q54 5 73 26l127 167L73 402q-21 29-62 35l3 30h215l-5-30q-36-3-61-21l92-124 88 117q-30 23-67 28l3 30h201l-4-30q-55-7-74-32L285 250 424 62q19-20 59-25l-4-37H263l4 36q46 5 63 17L230 188 131 56q19-15 67-20l-3-36H-3z"/><glyph unicode="y" horiz-adv-x="504" d="M202.5-187.5Q171-218 127.5-218T58-196.5t-26 52T46-99t33.5 15T116-95q-12-17-12-33.5t9-26 27-9.5q37 0 67 91l21 65L64 394q-13 32-71 42l2 31h218l-3-30q-38-3-59-22l116-305 99 305q-22 17-59 22l2 30h195l-2-30q-66-10-73-30L259-84q-25-73-56.5-103.5z"/><glyph unicode="z" horiz-adv-x="455" d="M74 469l173-2q83 0 151 2l7-36L144 46q15-1 81.5-1t89.5 1q24 33 40 92 12 3 22 3t26-2l-7-118-19-24q-39 3-142 3L52-4l-8 42 259 383q-56 4-94.5 4t-70.5-5q-21-26-27-81-13-5-27.5-5T58 338l-9 110z"/><glyph unicode="{" horiz-adv-x="387" d="M143 18q0 21 13 87t13 91-12.5 43-24.5 23l-12 5v34q4 0 14.5 6.5T152 322q17 20 17 47t-13 92.5-13 87.5q0 67 52 113t122 46v-33q-48-4-74-38t-26-71.5 9-85 9-76.5q0-81-46-120 46-39 46-121 0-29-9-76.5t-9-85 26-72 74-36.5v-35q-70 0-122 46.5T143 18z"/><glyph unicode="|" horiz-adv-x="316" d="M126-146v900h64v-900h-64z"/><glyph unicode="}" horiz-adv-x="387" d="M244 18q0-67-52-113.5T70-142v35q48 2 74 36.5t26 72-9 85-9 76.5q0 82 46 121-46 39-46 120 0 29 9 76.5t9 85-26 71.5-74 38v33q70 0 122-46t52-113q0-22-13-87.5T218 376t5-33.5 12-20.5q14-16 32-21v-34q-18-4-33.5-25T218 196t13-91 13-87z"/><glyph unicode="~" horiz-adv-x="712" d="M254 342q32 0 115.5-24.5T480 293q50 0 105 40 12-7 21-19-20-31-55-57t-76.5-26T348 256t-118 25q-50 0-103-40-13 7-21 21 69 80 148 80z"/><glyph unicode="¡" horiz-adv-x="286" d="M163 263l-3-202q0-160 19-241-21-17-59-17-56 0-56 75 0 34 21 173t26 203zm-29 224q53 0 53-58t-53-58-53 58 53 58z"/><glyph unicode="¢" horiz-adv-x="441" d="M411 369q0-23-15.5-40t-36-17-34.5 9.5-19 24.5q12 20 12 40.5T301.5 421 260 437V82q33 1 64 13t46 23l15 11 26-30q-7-7-19.5-18t-52-29.5T260 32v-90l-6-6q-12 0-34 4v93q-88 8-133 63.5T42 249t45.5 154.5T220 471v91l6 7q16 0 34-5v-91q67-1 109-30.5t42-73.5zM135 250q0-144 85-165v348q-50-12-67.5-58.5T135 250z"/><glyph unicode="£" horiz-adv-x="528" d="M110 468q0 100 52.5 153.5T311 675q64 0 112.5-30t48.5-88q0-31-16.5-50.5t-37-19.5-36 9.5T362 520q18 24 18 49t-20.5 41.5T303 627q-103 0-103-151 0-50 20-128h149q5-20 5-34l-7-6H231q16-66 16-112t-17-92q77-28 145-28 27 0 35.5 14.5T419 133v18q29-1 49.5-19.5T489 83q0-90-108-90-43 0-70.5 13T274 23q-21 9-64 38Q166-7 100-7 64-7 39.5 10.5T15 61t25.5 54 59.5 21 67-11q1 7 1 23 0 53-29 160H53q-5 18-5 33l7 7h74q-19 84-19 120zM99 32q47 0 62 55-31 12-57 12-43 0-43-37 0-30 38-30z"/><glyph unicode="¤" horiz-adv-x="544" d="M132 170q-41 47-41 124.5T134 421l-60 65 39 38 65-70q41 22 93 22t94-21l66 69 39-38-61-65q43-51 43-126.5T411 170l59-65-39-37-61 68q-40-24-97.5-24T173 136l-60-68-39 37zm140-17q58 0 86.5 37T387 293.5t-28.5 104T272 435q-116 0-116-141 0-67 29-104t87-37z"/><glyph unicode="¥" horiz-adv-x="609" d="M352 242V64q34-19 102-27l-4-37H162l5 37q62 7 97 27v178H99q-5 17-5 33l7 6h155l-32 64H99q-5 17-5 33l7 6h103L94 605q-24 18-62 26l5 36h247q-4-24-5-36-52-7-87-27l125-261 128 262q-38 20-89 26 1 12 5 36h220l-6-36q-36-7-61-26L405 384h105q4-15 4-33l-6-6H385l-31-64h156q4-13 4-33l-6-6H352z"/><glyph unicode="¦" horiz-adv-x="316" d="M126 398v356h64V398h-64zm0-544v356h64v-356h-64z"/><glyph unicode="§" horiz-adv-x="500" d="M369 81q21 26 21 69.5t-17 82-42.5 67-56 62-56.5 63-44.5 69.5-20.5 82q-21-23-21-67.5t24.5-86T216 344t70-76q83-94 83-187zm74 67q0-82-55.5-130.5T250.5-31t-125 32T82 87q0 30 15 50t46 20 50-29q-22-22-22-53.5t20-47T244 12q71 0 71 73 0 69-74 157-14 16-48.5 55t-55 66.5-40 70T78 517q0 82 54 131t135 49 123-33 42-88q0-31-14-49t-44.5-18-49.5 28q22 22 22 54 0 62-72 62-69 0-69-73 0-34 13.5-65t29.5-50 47-53.5 41.5-47.5 30-36.5 24.5-31 19-29 18-35.5q15-47 15-84z"/><glyph unicode="¨" horiz-adv-x="285" d="M59 552q-47 0-47 52.5T59 657t47-52.5T59 552zm166 0q-46 0-46 52.5t46 52.5q48 0 48-52.5T225 552z"/><glyph unicode="©" horiz-adv-x="851" d="M251.5 481Q179 407 179 303.5t72.5-177T425 53t173.5 73.5 72.5 177T598.5 481 425 555t-173.5-74zm-32-381Q135 184 135 303.5t84.5 204T425 592t206-84.5T716 304t-85-203.5T425 16t-205.5 84zM430 127q-80 0-117 42t-37 132q0 175 157 175 50 0 81.5-21.5T546 399q0-17-11.5-30.5T507 355q-32 0-39 27 10 15 10 29.5t-12.5 26T433 449q-46 0-67-35.5T345 301t19.5-110 65.5-33q60 0 83 63l30-10q-12-38-42.5-61T430 127z"/><glyph unicode="ª" horiz-adv-x="417" d="M244 369q-34-29-81.5-29T92 360.5 69 418q0 87 124 98l47 4v48q0 35-11.5 50.5T193 634t-37-7.5-13-20.5 11-25q-3-31-37-31-17 0-29 10t-12 28q0 35 32.5 56t86 21 83-26 29.5-71V387q13-9 47-16l-3-26H250zm-107 54q0-51 41-51 31 0 62 26v90l-44-3q-27-2-43-19t-16-43zM69 256v34h283v-34H69z"/><glyph unicode="«" horiz-adv-x="488" d="M198 43L38 241l160 198 39-24-100-174L237 68zm187 0L225 241l160 198 39-24-100-174L424 68z"/><glyph unicode="¬" d="M478 398V177h-60v168H39v53h439z"/><glyph unicode="­" horiz-adv-x="332" d="M52 231v54h229v-54H52z"/><glyph unicode="®" horiz-adv-x="851" d="M394 297V194l42-9-3-25H294l3 25 40 9v236l-43 12 3 25h130q112 0 112-84 0-58-62-75 18-13 26-33l37-81 35-8-4-26h-82l-39 101q-9 24-19.5 30t-36.5 6zm33 140h-33V330h14q73 0 73 53 0 26-14.5 40T427 437zm-175.5 44Q179 407 179 303.5t72.5-177T425 53t173.5 73.5 72.5 177T598.5 481 425 555t-173.5-74zm-32-381Q135 184 135 303.5t84.5 204T425 592t206-84.5T716 304t-85-203.5T425 16t-205.5 84z"/><glyph unicode="¯" horiz-adv-x="285" d="M3 570v44h278v-44H3z"/><glyph unicode="°" horiz-adv-x="375" d="M87 430q-40 40-40 97.5T87 625t100.5 40T288 625t40-97.5-40-97.5-100.5-40T87 430zm29 97q0-44 18.5-73t53-29 53 29 18.5 73-18.5 73-53 29-53-29-18.5-73z"/><glyph unicode="±" d="M72 327v53h172v178h60V380h177v-53H304V150h-60v177H72zm3-300v53h400V27H75z"/><glyph unicode="²" horiz-adv-x="407" d="M326 459v-54H46v42q110 94 152 150t42 106q0 69-64 69-29 0-46-12t-17-30.5 17-37.5q-20-18-39.5-18T58 686.5 45 724q0 44 37.5 66t97.5 22 94.5-29.5 34.5-83T268 590 132 459h194z"/><glyph unicode="³" horiz-adv-x="407" d="M142 599v36q104 3 104 76 0 61-59 61-27 0-43-12t-16-27.5 10-28.5q-21-15-38-15-36 0-36 44 0 33 36 56t90.5 23 89-28 34.5-73q0-66-73-93 78-26 78-101 0-52-38-84t-100-32-98 23-36 63q0 17 11.5 27.5T88 525t37-13q-7-14-7-30.5t18.5-29 50-12.5 49.5 20.5 18 58-29.5 59T142 599z"/><glyph unicode="´" horiz-adv-x="285" d="M150 664q13 17 29.5 17t27.5-10.5 11-26-25-37.5L89 524l-22 24z"/><glyph unicode="µ" horiz-adv-x="544" d="M365 349q0 37-15.5 50.5T295 415l3 29q34 6 133 35l19-10V62q23-19 70-27l-4-35H383l-10 63Q320-7 248-7q-39 0-75 12v-210H87v554q0 37-15 50.5T18 415l3 29q33 6 132 35l20-10V143q0-105 86-105 62 0 106 79v232z"/><glyph unicode="¶" horiz-adv-x="588" d="M301 314q-113 0-173.5 38T67 484.5 128 618t173 39h220l-5-37q-58-7-90-27V0q0-47-13-81.5T381.5-134 338-163q-35-16-77-16-115 0-115 82 0 27 15 43.5T201-37t37-25q-18-16-18-37.5t11.5-32.5 30-11 29 15T301-91v405zM166 485q0-61 36.5-94t98.5-33v255q-135 0-135-128zM349-78q0-38-16-54 52 15 52 85v659l-36 3V-78z"/><glyph unicode="·" horiz-adv-x="282" d="M141 351q53 0 53-58t-53-58-53 58 53 58z"/><glyph unicode="¸" horiz-adv-x="285" d="M211.5-71Q231-89 231-123.5T204-181t-70-23-66 20-23 41 9 32.5T75-99t21-4q-4-14-4-27.5t13-27 32-13.5q43 0 43 50 0 37-55 45l-18 20 40 65 26-5-18-50q37-7 56.5-25z"/><glyph unicode="¹" horiz-adv-x="407" d="M180 743H92v36q70 6 127 33l26-10V452q28-13 82-17l-3-30H89l2 30q62 7 89 17v291z"/><glyph unicode="º" horiz-adv-x="428" d="M135 502q0-67 17.5-97t56-30 56.5 30 18 97-18 97-56.5 30-56-30-17.5-97zm-69 0q0 79 36 121t106.5 42 107-42T352 502q0-162-144-162-142 0-142 162zm0-246v34h287v-34H66z"/><glyph unicode="»" horiz-adv-x="488" d="M263 241L103 43 64 68l99 173-99 174 39 24zm187 0L290 43l-39 25 99 173-99 174 39 24z"/><glyph unicode="¼" horiz-adv-x="865" d="M282-32L232-6l310 686 51-23zM167 609H90v28q68 12 115 35l25-10V339l63-16-2-28H95l3 28 69 16v270zM676 99H515l-5 24 162 248h67V139h54V99h-54V42q14-7 50-13l-4-29H620l5 29q37 6 51 13v57zm0 40v161L572 139h104z"/><glyph unicode="½" horiz-adv-x="890" d="M163 609H86v28q68 12 115 35l25-10V339l63-16-2-28H91l3 28 69 16v270zM300-32L250-6l310 686 51-23zM555 0v40q105 87 144.5 138t39.5 97q0 63-59 63-27 0-42-14t-15-33 13-38q-16-16-36-16t-32 12-12 42.5 37 58 91.5 27.5 88.5-28.5 34-77-39-99.5T637 52h186V0H555z"/><glyph unicode="¾" horiz-adv-x="865" d="M291-32L241-6l310 686 51-23zM151 472v31q100 3 100 74 0 25-14.5 39T196 630t-40-13-14-28.5 7-26.5q-18-14-35.5-14t-27 11.5T77 591q0 33 34 55.5t87 22.5 85.5-25.5T316 577q0-61-72-88 81-23 81-94 0-46-37.5-76.5T191 288t-94 25-35 65q0 18 12 27.5t29 9.5 35-13q-6-15-6-32t16.5-30 45.5-13q64 0 64 68 0 35-26.5 55.5T155 472h-4zM676 99H515l-5 24 162 248h67V139h54V99h-54V42q14-7 50-13l-4-29H620l5 29q37 6 51 13v57zm0 40v161L572 139h104z"/><glyph unicode="¿" horiz-adv-x="422" d="M278 245q13-18 13-49.5T273.5 134 231 82.5 182 40q-60-53-60-116 0-33 23.5-52.5t56-19.5 52.5 12.5 20 34.5-11 40q21 30 48 30 49 0 49-54t-46-80-113.5-26T88-160.5 43-64q0 38 16.5 71.5t40 56.5 47.5 44q57 52 57 95 0 19-6 43 21 17 44 17t36-18zm-44 242q53 0 53-58t-53-58-53 58 53 58z"/><glyph unicode="À" horiz-adv-x="623" d="M13 0l5 37q45 7 71 26l187 604h60L542 62q25-18 66-25l-4-37H354l5 37q58 7 92 27l-51 151H198L152 64q33-19 97-27l-4-37H13zm282 528l-81-261h169zm-61 251q-25 22-25 37.5t11 26 27.5 10.5 29.5-17l83-116-24-24z"/><glyph unicode="Á" horiz-adv-x="623" d="M13 0l5 37q45 7 71 26l187 604h60L542 62q25-18 66-25l-4-37H354l5 37q58 7 92 27l-51 151H198L152 64q33-19 97-27l-4-37H13zm282 528l-81-261h169zm62 308q13 17 29.5 17t27.5-10.5 11-26-25-37.5l-104-83-22 24z"/><glyph unicode="Â" horiz-adv-x="623" d="M13 0l5 37q45 7 71 26l187 604h60L542 62q25-18 66-25l-4-37H354l5 37q58 7 92 27l-51 151H198L152 64q33-19 97-27l-4-37H13zm282 528l-81-261h169zm-16 299q14 16 31.5 16t30.5-16l92-107-23-24-101 77-101-77-22 24z"/><glyph unicode="Ã" horiz-adv-x="623" d="M13 0l5 37q45 7 71 26l187 604h60L542 62q25-18 66-25l-4-37H354l5 37q58 7 92 27l-51 151H198L152 64q33-19 97-27l-4-37H13zm282 528l-81-261h169zM190 795q26 25 56 25t66-17.5 60-17.5 61 37q17-6 33-19-12-28-38.5-54t-56-26-65.5 17.5-61 17.5-60-35q-16 4-32 19 11 28 37 53z"/><glyph unicode="Ä" horiz-adv-x="623" d="M13 0l5 37q45 7 71 26l187 604h60L542 62q25-18 66-25l-4-37H354l5 37q58 7 92 27l-51 151H198L152 64q33-19 97-27l-4-37H13zm282 528l-81-261h169zm-69 200q-47 0-47 52.5t47 52.5 47-52.5-47-52.5zm166 0q-46 0-46 52.5t46 52.5q48 0 48-52.5T392 728z"/><glyph unicode="Å" horiz-adv-x="623" d="M13 0l5 37q45 7 71 26l187 604h60L542 62q25-18 66-25l-4-37H354l5 37q58 7 92 27l-51 151H198L152 64q33-19 97-27l-4-37H13zm282 528l-81-261h169zm14 167q-38 0-61.5 23T224 777.5t23 59.5 61.5 23 62.5-23.5 24-59.5-24-59-62-23zm0 39q18 0 31.5 13t13.5 30.5-13.5 31T309 822t-30.5-13.5T266 777t12.5-30.5T309 734z"/><glyph unicode="Æ" horiz-adv-x="866" d="M794 515q-13-5-22.5-5t-19.5 2q-12 64-42 102H521V364l112 5q40 1 58 67h30V238h-30l-10 30q-11 29-23.5 36t-25.5 8l-111 6V58h213q30 42 43 113 14 2 20 2t20-2L808 0H335l6 37q56 7 92 27v207H265L157 64q32-19 99-27l-4-37H19l6 37q37 6 63 24l318 606h379zM433 318v272L290 318h143z"/><glyph unicode="Ç" horiz-adv-x="562" d="M120 85.5q-56 83.5-56 253T127.5 592 323 676q86 0 142.5-37.5T522 544q0-33-17-56t-39-23-38 11-22 28q19 26 19 53.5t-28 46-74 18.5q-81 0-120-70.5T164 335t38.5-214T323 53q52 0 101.5 24.5T499 135l35-38q-9-12-33-32.5T454.5 30t-58-25T325-7l-14-39q37-7 56.5-25t19.5-52.5-27-57.5-70-23-66 20-23 41 9 32.5T231-99t21-4q-4-14-4-27.5t13-27 32-13.5q43 0 43 50 0 37-55 45l-18 20 31 50Q176 2 120 85.5z"/><glyph unicode="È" horiz-adv-x="575" d="M490 515q-13-5-23-5t-20 2q-13 66-42 102H217V364l113 5q39 1 56 67h32V238h-32q-5 24-10 36t-17.5 24.5T329 312l-112 6V58h213q30 42 43 113 12 2 18 2t22-2L504 0H31l6 37q67 8 92 27v540q-38 20-98 27 4 24 5 36h446zM197 789q-25 22-25 37.5t11 26 27.5 10.5 29.5-17l83-116-24-24z"/><glyph unicode="É" horiz-adv-x="575" d="M490 515q-13-5-23-5t-20 2q-13 66-42 102H217V364l113 5q39 1 56 67h32V238h-32q-5 24-10 36t-17.5 24.5T329 312l-112 6V58h213q30 42 43 113 12 2 18 2t22-2L504 0H31l6 37q67 8 92 27v540q-38 20-98 27 4 24 5 36h446zM320 846q13 17 29.5 17t27.5-10.5 11-26-25-37.5l-104-83-22 24z"/><glyph unicode="Ê" horiz-adv-x="575" d="M490 515q-13-5-23-5t-20 2q-13 66-42 102H217V364l113 5q39 1 56 67h32V238h-32q-5 24-10 36t-17.5 24.5T329 312l-112 6V58h213q30 42 43 113 12 2 18 2t22-2L504 0H31l6 37q67 8 92 27v540q-38 20-98 27 4 24 5 36h446zM242 837q14 16 31.5 16t30.5-16l92-107-23-24-101 77-101-77-22 24z"/><glyph unicode="Ë" horiz-adv-x="575" d="M490 515q-13-5-23-5t-20 2q-13 66-42 102H217V364l113 5q39 1 56 67h32V238h-32q-5 24-10 36t-17.5 24.5T329 312l-112 6V58h213q30 42 43 113 12 2 18 2t22-2L504 0H31l6 37q67 8 92 27v540q-38 20-98 27 4 24 5 36h446zM189 728q-47 0-47 52.5t47 52.5 47-52.5-47-52.5zm166 0q-46 0-46 52.5t46 52.5q48 0 48-52.5T355 728z"/><glyph unicode="Ì" horiz-adv-x="324" d="M20 0l6 37q58 7 92 27v540q-39 20-98 27 4 24 5 36h277q-1-12-5-36-54-7-91-27V64q33-19 97-27l-5-37H20zm66 789q-25 22-25 37.5t11 26T99.5 863t29.5-17l83-116-24-24z"/><glyph unicode="Í" horiz-adv-x="324" d="M20 0l6 37q58 7 92 27v540q-39 20-98 27 4 24 5 36h277q-1-12-5-36-54-7-91-27V64q33-19 97-27l-5-37H20zm189 846q13 17 29.5 17t27.5-10.5 11-26-25-37.5l-104-83-22 24z"/><glyph unicode="Î" horiz-adv-x="324" d="M20 0l6 37q58 7 92 27v540q-39 20-98 27 4 24 5 36h277q-1-12-5-36-54-7-91-27V64q33-19 97-27l-5-37H20zm111 837q14 16 31.5 16t30.5-16l92-107-23-24-101 77-101-77-22 24z"/><glyph unicode="Ï" horiz-adv-x="324" d="M20 0l6 37q58 7 92 27v540q-39 20-98 27 4 24 5 36h277q-1-12-5-36-54-7-91-27V64q33-19 97-27l-5-37H20zm58 728q-47 0-47 52.5T78 833t47-52.5T78 728zm166 0q-46 0-46 52.5t46 52.5q48 0 48-52.5T244 728z"/><glyph unicode="Ð" horiz-adv-x="665" d="M60 304v44h79v256q-35 19-97 27l5 36h215q175 0 262-80t87-254.5T523.5 79 256 0H43l5 37q61 8 91 26v241H60zm216 313h-48V348h110v-44H228V53q17-4 45-4 120 0 179 64.5t59 220T453 553t-177 64z"/><glyph unicode="Ñ" horiz-adv-x="681" d="M569 0h-43L186 515V64q33-19 97-27l-4-37H25l6 37q58 7 92 27v540q-39 20-98 27 4 24 5 36h159l315-476v413q-35 19-96 27 1 12 5 36h253q-4-24-5-36-55-6-92-27V0zM226 805q26 25 56 25t66-17.5 60-17.5 61 37q17-6 33-19-12-28-38.5-54t-56-26-65.5 17.5-61 17.5-60-35q-16 4-32 19 11 28 37 53z"/><glyph unicode="Ò" horiz-adv-x="653" d="M237 65q36-23 85-23t80.5 16 50 41.5 29 65.5 14 78.5T499 333t-3.5 90-14 79-29.5 66q-42 58-125 58-108 0-143-90-30-76-30-202 0-124 30-202 17-44 53-67zM116.5 588q63.5 88 210 88t210-88.5 63.5-254-63.5-253T326.5-7t-210 88T53 334.5 116.5 588zM251 789q-25 22-25 37.5t11 26 27.5 10.5 29.5-17l83-116-24-24z"/><glyph unicode="Ó" horiz-adv-x="653" d="M237 65q36-23 85-23t80.5 16 50 41.5 29 65.5 14 78.5T499 333t-3.5 90-14 79-29.5 66q-42 58-125 58-108 0-143-90-30-76-30-202 0-124 30-202 17-44 53-67zM116.5 588q63.5 88 210 88t210-88.5 63.5-254-63.5-253T326.5-7t-210 88T53 334.5 116.5 588zM374 846q13 17 29.5 17t27.5-10.5 11-26-25-37.5l-104-83-22 24z"/><glyph unicode="Ô" horiz-adv-x="653" d="M237 65q36-23 85-23t80.5 16 50 41.5 29 65.5 14 78.5T499 333t-3.5 90-14 79-29.5 66q-42 58-125 58-108 0-143-90-30-76-30-202 0-124 30-202 17-44 53-67zM116.5 588q63.5 88 210 88t210-88.5 63.5-254-63.5-253T326.5-7t-210 88T53 334.5 116.5 588zM296 837q14 16 31.5 16t30.5-16l92-107-23-24-101 77-101-77-22 24z"/><glyph unicode="Õ" horiz-adv-x="653" d="M237 65q36-23 85-23t80.5 16 50 41.5 29 65.5 14 78.5T499 333t-3.5 90-14 79-29.5 66q-42 58-125 58-108 0-143-90-30-76-30-202 0-124 30-202 17-44 53-67zM116.5 588q63.5 88 210 88t210-88.5 63.5-254-63.5-253T326.5-7t-210 88T53 334.5 116.5 588zM207 805q26 25 56 25t66-17.5 60-17.5 61 37q17-6 33-19-12-28-38.5-54T389 733t-66 17.5-61.5 17.5-59.5-35q-16 4-32 19 11 28 37 53z"/><glyph unicode="Ö" horiz-adv-x="653" d="M237 65q36-23 85-23t80.5 16 50 41.5 29 65.5 14 78.5T499 333t-3.5 90-14 79-29.5 66q-42 58-125 58-108 0-143-90-30-76-30-202 0-124 30-202 17-44 53-67zM116.5 588q63.5 88 210 88t210-88.5 63.5-254-63.5-253T326.5-7t-210 88T53 334.5 116.5 588zM243 728q-47 0-47 52.5t47 52.5 47-52.5-47-52.5zm166 0q-46 0-46 52.5t46 52.5q48 0 48-52.5T409 728z"/><glyph unicode="×" d="M122 92l-41 42 154 152L84 436l41 42 151-150 152 150 41-42-150-150 154-152-41-42-156 152z"/><glyph unicode="Ø" horiz-adv-x="653" d="M332 676q112 0 179-56l47 64h7q10-5 26-24l-51-70q65-85 65-253.5t-63.5-256T332-7Q213-7 148 52L90-27l-7-1Q72-21 57-4l63 86q-62 83-62 250.5T121.5 588 332 676zm0-634q122 0 154 123 18 67 18 176t-21 171L195 117q42-75 137-75zM165.5 446q-6.5-47-6.5-136t18-149l287 395q-41 70-132 70-108 0-143-90-17-43-23.5-90z"/><glyph unicode="Ù" horiz-adv-x="648" d="M558 216q0-107-58.5-165t-177-58-176 52T89 210v394q-39 20-97 27l4 36h280l-6-36q-57-10-90-27V210q0-88 36.5-126.5t115-38.5T452 89t42 127v388q-37 20-97 27 1 12 5 36h253l-5-36q-59-10-92-27V216zM248 789q-25 22-25 37.5t11 26 27.5 10.5 29.5-17l83-116-24-24z"/><glyph unicode="Ú" horiz-adv-x="648" d="M558 216q0-107-58.5-165t-177-58-176 52T89 210v394q-39 20-97 27l4 36h280l-6-36q-57-10-90-27V210q0-88 36.5-126.5t115-38.5T452 89t42 127v388q-37 20-97 27 1 12 5 36h253l-5-36q-59-10-92-27V216zM371 846q13 17 29.5 17t27.5-10.5 11-26-25-37.5l-104-83-22 24z"/><glyph unicode="Û" horiz-adv-x="648" d="M558 216q0-107-58.5-165t-177-58-176 52T89 210v394q-39 20-97 27l4 36h280l-6-36q-57-10-90-27V210q0-88 36.5-126.5t115-38.5T452 89t42 127v388q-37 20-97 27 1 12 5 36h253l-5-36q-59-10-92-27V216zM293 837q14 16 31.5 16t30.5-16l92-107-23-24-101 77-101-77-22 24z"/><glyph unicode="Ü" horiz-adv-x="648" d="M558 216q0-107-58.5-165t-177-58-176 52T89 210v394q-39 20-97 27l4 36h280l-6-36q-57-10-90-27V210q0-88 36.5-126.5t115-38.5T452 89t42 127v388q-37 20-97 27 1 12 5 36h253l-5-36q-59-10-92-27V216zM240 728q-47 0-47 52.5t47 52.5 47-52.5-47-52.5zm166 0q-46 0-46 52.5t46 52.5q48 0 48-52.5T406 728z"/><glyph unicode="Ý" horiz-adv-x="570" d="M141 0l5 37q62 7 97 27v201L73 605q-24 18-62 26l5 36h247q-4-24-5-36-52-7-87-27l125-261 128 262q-38 20-89 26 1 12 5 36h220l-6-36q-36-7-61-26L331 277V64q34-19 102-27l-4-37H141zm202 846q13 17 29.5 17t27.5-10.5 11-26-25-37.5l-104-83-22 24z"/><glyph unicode="Þ" horiz-adv-x="574" d="M235 524h76q219 0 219-183 0-103-67-144.5T268 155h-33V64q33-19 97-27l-5-37H49l6 37q58 7 92 27v540q-39 20-98 27 4 24 5 36h277q-1-12-5-36-54-7-91-27v-80zm0-324h33q172 0 172 143 0 69-33.5 104T311 482q-42 0-76-6V200z"/><glyph unicode="ß" horiz-adv-x="605" d="M248 76q0 26 15.5 42t37 16 40.5-10q-9-21-9-40.5T345.5 51 384 38q37 0 58.5 36T464 177t-44.5 107T278 338v53q48 8 86.5 53.5t38.5 95-24.5 78.5-72.5 29q-75 0-92-75-8-40-8-102V0H51l4 36q43 7 66 26v453q0 84 48.5 127.5t134 43.5T440 649t51-114q0-48-38.5-92.5T353 371q92-20 145.5-73T552 170 503.5 45 382-5Q248-5 248 76z"/><glyph unicode="à" horiz-adv-x="488" d="M174-7q-62 0-96 30t-34 89.5 48 97T231 253l82 6v81q0 50-21 73t-68 23q-83 0-83-45 0-26 30-37 0-48-57-48-26 0-42 16t-16 42q0 51 45.5 81.5t125 30.5T352 440t46-100V61q23-17 70-27l-4-34H326l-10 45Q260-7 174-7zm-42 123q0-82 67-82 53 0 114 58v126l-80-7q-47-4-74-29.5T132 116zm21 473q-25 22-25 37.5t11 26 27.5 10.5 29.5-17l83-116-24-24z"/><glyph unicode="á" horiz-adv-x="488" d="M174-7q-62 0-96 30t-34 89.5 48 97T231 253l82 6v81q0 50-21 73t-68 23q-83 0-83-45 0-26 30-37 0-48-57-48-26 0-42 16t-16 42q0 51 45.5 81.5t125 30.5T352 440t46-100V61q23-17 70-27l-4-34H326l-10 45Q260-7 174-7zm-42 123q0-82 67-82 53 0 114 58v126l-80-7q-47-4-74-29.5T132 116zm144 530q13 17 29.5 17t27.5-10.5 11-26-25-37.5l-104-83-22 24z"/><glyph unicode="â" horiz-adv-x="488" d="M174-7q-62 0-96 30t-34 89.5 48 97T231 253l82 6v81q0 50-21 73t-68 23q-83 0-83-45 0-26 30-37 0-48-57-48-26 0-42 16t-16 42q0 51 45.5 81.5t125 30.5T352 440t46-100V61q23-17 70-27l-4-34H326l-10 45Q260-7 174-7zm-42 123q0-82 67-82 53 0 114 58v126l-80-7q-47-4-74-29.5T132 116zm66 521q14 16 31.5 16t30.5-16l92-107-23-24-101 77-101-77-22 24z"/><glyph unicode="ã" horiz-adv-x="488" d="M174-7q-62 0-96 30t-34 89.5 48 97T231 253l82 6v81q0 50-21 73t-68 23q-83 0-83-45 0-26 30-37 0-48-57-48-26 0-42 16t-16 42q0 51 45.5 81.5t125 30.5T352 440t46-100V61q23-17 70-27l-4-34H326l-10 45Q260-7 174-7zm-42 123q0-82 67-82 53 0 114 58v126l-80-7q-47-4-74-29.5T132 116zm-23 489q26 25 56 25t66-17.5 60-17.5 61 37q17-6 33-19-12-28-38.5-54T291 533t-66 17.5-61.5 17.5-59.5-35q-16 4-32 19 11 28 37 53z"/><glyph unicode="ä" horiz-adv-x="488" d="M174-7q-62 0-96 30t-34 89.5 48 97T231 253l82 6v81q0 50-21 73t-68 23q-83 0-83-45 0-26 30-37 0-48-57-48-26 0-42 16t-16 42q0 51 45.5 81.5t125 30.5T352 440t46-100V61q23-17 70-27l-4-34H326l-10 45Q260-7 174-7zm-42 123q0-82 67-82 53 0 114 58v126l-80-7q-47-4-74-29.5T132 116zm13 424q-47 0-47 52.5t47 52.5 47-52.5-47-52.5zm166 0q-46 0-46 52.5t46 52.5q48 0 48-52.5T311 540z"/><glyph unicode="å" horiz-adv-x="488" d="M171-7q-62 0-96 30t-34 89.5 48 97T228 253l82 6v81q0 50-21 73t-68 23q-83 0-83-45 0-26 30-37 0-48-57-48-26 0-42 16t-16 42q0 51 45.5 81.5t125 30.5T349 440t46-100V61q23-17 70-27l-4-34H323l-10 45Q257-7 171-7zm-42 123q0-82 67-82 53 0 114 58v126l-80-7q-47-4-74-29.5T129 116zm99 389q-38 0-61.5 23T143 587.5t23.5 59.5 61.5 23 62-23.5 24-59.5-24-59-62-23zm0 39q18 0 31.5 13t13.5 30.5-13.5 31T228 632t-30.5-13.5T185 587t12.5-30.5T228 544z"/><glyph unicode="æ" horiz-adv-x="752" d="M231 476q105 0 148-57 54 57 151.5 57T668 424t43-154l-21-27H412v-5q0-122 31-160 29-36 92-36 33 0 65 12t48 24l15 11 25-30q-7-7-20-18t-54-29.5T531-7Q408-7 359 68 279-7 181-7q-62 0-96 30t-34 89.5 48 97T238 253l81 6v81q0 50-21 73t-64 23-65-12-22-35.5 31-34.5q0-48-57-48-26 0-42 16t-16 42q0 51 45.5 81.5T231 476zm-92-360q0-82 67-82 52 0 113 58v126l-79-7q-47-4-74-29.5T139 116zm386 320q-110 0-113-156l209 7q0 78-20.5 113.5T525 436z"/><glyph unicode="ç" horiz-adv-x="441" d="M257 476q69 0 111.5-29.5T411 370q0-23-15.5-41t-36-18-34.5 10-19 26q13 21 13 41.5t-17 36-49.5 15.5-58-16-38.5-46q-21-52-21-120t4-99 16-60q24-57 103-57 33 0 65 12t47 24l15 11 26-30q-7-7-19.5-17.5t-52-29T260-7l-14-39q37-7 56.5-25t19.5-52.5-27-57.5-70-23-66 20-23 41 9 32.5T166-99t21-4q-4-14-4-27.5t13.5-27T228-171q43 0 43 50 0 37-55 45l-18 20 30 50Q129 0 85.5 61T42 238q3 238 215 238z"/><glyph unicode="è" horiz-adv-x="488" d="M152 243v-5q0-122 31-160 29-36 92-36 33 0 65 12t48 24l15 11 25-30q-7-7-20-18t-54-29.5T271-7Q157-7 108.5 54.5T60 232.5t53.5 180 154 63.5T408 424t43-154l-21-27H152zm113 193q-110 0-113-156l209 7q0 79-20.5 114T265 436zm-85 153q-25 22-25 37.5t11 26 27.5 10.5 29.5-17l83-116-24-24z"/><glyph unicode="é" horiz-adv-x="488" d="M152 243v-5q0-122 31-160 29-36 92-36 33 0 65 12t48 24l15 11 25-30q-7-7-20-18t-54-29.5T271-7Q157-7 108.5 54.5T60 232.5t53.5 180 154 63.5T408 424t43-154l-21-27H152zm113 193q-110 0-113-156l209 7q0 79-20.5 114T265 436zm38 210q13 17 29.5 17t27.5-10.5 11-26-25-37.5l-104-83-22 24z"/><glyph unicode="ê" horiz-adv-x="488" d="M152 243v-5q0-122 31-160 29-36 92-36 33 0 65 12t48 24l15 11 25-30q-7-7-20-18t-54-29.5T271-7Q157-7 108.5 54.5T60 232.5t53.5 180 154 63.5T408 424t43-154l-21-27H152zm113 193q-110 0-113-156l209 7q0 79-20.5 114T265 436zm-40 201q14 16 31.5 16t30.5-16l92-107-23-24-101 77-101-77-22 24z"/><glyph unicode="ë" horiz-adv-x="488" d="M152 243v-5q0-122 31-160 29-36 92-36 33 0 65 12t48 24l15 11 25-30q-7-7-20-18t-54-29.5T271-7Q157-7 108.5 54.5T60 232.5t53.5 180 154 63.5T408 424t43-154l-21-27H152zm113 193q-110 0-113-156l209 7q0 79-20.5 114T265 436zm-93 104q-47 0-47 52.5t47 52.5 47-52.5-47-52.5zm166 0q-46 0-46 52.5t46 52.5q48 0 48-52.5T338 540z"/><glyph unicode="ì" horiz-adv-x="278" d="M104 349q0 37-15.5 50.5T34 415l3 29q38 7 132 35l20-11V61q25-18 70-27l-4-34H34l4 36q41 7 66 25v288zM63 589q-25 22-25 37.5t11 26T76.5 663t29.5-17l83-116-24-24z"/><glyph unicode="í" horiz-adv-x="278" d="M104 349q0 37-15.5 50.5T34 415l3 29q38 7 132 35l20-11V61q25-18 70-27l-4-34H34l4 36q41 7 66 25v288zm82 297q13 17 29.5 17t27.5-10.5 11-26-25-37.5l-104-83-22 24z"/><glyph unicode="î" horiz-adv-x="278" d="M104 349q0 37-15.5 50.5T34 415l3 29q38 7 132 35l20-11V61q25-18 70-27l-4-34H34l4 36q41 7 66 25v288zm4 288q14 16 31.5 16t30.5-16l92-107-23-24-101 77-101-77-22 24z"/><glyph unicode="ï" horiz-adv-x="278" d="M55 540q-47 0-47 52.5T55 645t47-52.5T55 540zm136 0q-46 0-46 52.5t46 52.5q48 0 48-52.5T191 540zm-87-191q0 37-15.5 50.5T34 415l3 29q38 7 132 35l20-11V61q25-18 70-27l-4-34H34l4 36q41 7 66 25v288z"/><glyph unicode="ð" horiz-adv-x="530" d="M353 85q28 46 28 155.5T370 408q-42 26-100 26t-92-55-34-152 28-142.5T262.5 39 353 85zm116 192v-42q0-118-52.5-180T262-7 108 53 56 230t56.5 181.5T276 476q43 0 79-15-24 67-77 112l-147-56-17 40 119 48q-28 19-95 46l17 43q97-35 141-64l114 46 20-45-86-32q65-52 95-129t30-193z"/><glyph unicode="ñ" horiz-adv-x="558" d="M383 329q0 99-86 99-34 0-65-23.5T185 344V62q24-19 70-28l-4-34H30l4 36q43 7 66 26v285q0 37-15.5 50.5T30 413l3 29q13 2 122 34l18-9 9-62q23 33 58.5 52t73.5 19q73 0 113.5-36.5T468 338V62q22-18 70-28l-4-34H314l3 34q38 6 66 28v267zM165 605q26 25 56 25t66-17.5 60-17.5 61 37q17-6 33-19-12-28-38.5-54T347 533t-66 17.5-61.5 17.5-59.5-35q-16 4-32 19 11 28 37 53z"/><glyph unicode="ò" horiz-adv-x="531" d="M143 235q0-104 28.5-150T265 39t94.5 46T389 235t-29 149.5-94.5 45.5-94-45.5T143 235zm-90 0q0 118 53.5 179.5T265 476t158.5-61.5T477 235 423.5 55 265-7 106.5 55 53 235zm137 354q-25 22-25 37.5t11 26 27.5 10.5 29.5-17l83-116-24-24z"/><glyph unicode="ó" horiz-adv-x="531" d="M143 235q0-104 28.5-150T265 39t94.5 46T389 235t-29 149.5-94.5 45.5-94-45.5T143 235zm-90 0q0 118 53.5 179.5T265 476t158.5-61.5T477 235 423.5 55 265-7 106.5 55 53 235zm260 411q13 17 29.5 17t27.5-10.5 11-26-25-37.5l-104-83-22 24z"/><glyph unicode="ô" horiz-adv-x="531" d="M143 235q0-104 28.5-150T265 39t94.5 46T389 235t-29 149.5-94.5 45.5-94-45.5T143 235zm-90 0q0 118 53.5 179.5T265 476t158.5-61.5T477 235 423.5 55 265-7 106.5 55 53 235zm182 402q14 16 31.5 16t30.5-16l92-107-23-24-101 77-101-77-22 24z"/><glyph unicode="õ" horiz-adv-x="531" d="M143 235q0-104 28.5-150T265 39t94.5 46T389 235t-29 149.5-94.5 45.5-94-45.5T143 235zm-90 0q0 118 53.5 179.5T265 476t158.5-61.5T477 235 423.5 55 265-7 106.5 55 53 235zm93 370q26 25 56 25t66-17.5 60-17.5 61 37q17-6 33-19-12-28-38.5-54T328 533t-65.5 17.5T201 568t-60-35q-16 4-32 19 11 28 37 53z"/><glyph unicode="ö" horiz-adv-x="531" d="M143 235q0-104 28.5-150T265 39t94.5 46T389 235t-29 149.5-94.5 45.5-94-45.5T143 235zm-90 0q0 118 53.5 179.5T265 476t158.5-61.5T477 235 423.5 55 265-7 106.5 55 53 235zm129 305q-47 0-47 52.5t47 52.5 47-52.5-47-52.5zm166 0q-46 0-46 52.5t46 52.5q48 0 48-52.5T348 540z"/><glyph unicode="÷" d="M62 259v53h429v-53H62zM274 78q-46 0-46 52.5t46 52.5q49 0 49-52.5T274 78zm0 310q-46 0-46 52.5t46 52.5q49 0 49-52.5T274 388z"/><glyph unicode="ø" horiz-adv-x="531" d="M96 68q-43 59-43 172t53.5 174.5T265 476q84 0 136-40l40 48h8q12-8 21-20l-44-53q51-60 51-177T423.5 55 271-7 119 41L71-17h-6q-8 6-22 20zm263.5 17Q389 131 389 219.5T375 350L165 96q28-57 96.5-57t98 46zM143 235q0-59 9-100l207 250q-29 45-94 45t-93.5-45.5T143 235z"/><glyph unicode="ù" horiz-adv-x="552" d="M254-7Q93-7 93 154v195q0 37-15 50.5T24 415l2 29q34 6 133 35l20-10V143q0-105 86-105 26 0 55 19.5t51 59.5v232q0 37-15.5 50.5T301 415l3 29q34 6 133 35l19-10V62q22-19 69-27l-3-35H389l-10 63Q327-7 254-7zm-55 596q-25 22-25 37.5t11 26 27.5 10.5 29.5-17l83-116-24-24z"/><glyph unicode="ú" horiz-adv-x="552" d="M254-7Q93-7 93 154v195q0 37-15 50.5T24 415l2 29q34 6 133 35l20-10V143q0-105 86-105 26 0 55 19.5t51 59.5v232q0 37-15.5 50.5T301 415l3 29q34 6 133 35l19-10V62q22-19 69-27l-3-35H389l-10 63Q327-7 254-7zm68 653q13 17 29.5 17t27.5-10.5 11-26-25-37.5l-104-83-22 24z"/><glyph unicode="û" horiz-adv-x="552" d="M254-7Q93-7 93 154v195q0 37-15 50.5T24 415l2 29q34 6 133 35l20-10V143q0-105 86-105 26 0 55 19.5t51 59.5v232q0 37-15.5 50.5T301 415l3 29q34 6 133 35l19-10V62q22-19 69-27l-3-35H389l-10 63Q327-7 254-7zm-10 644q14 16 31.5 16t30.5-16l92-107-23-24-101 77-101-77-22 24z"/><glyph unicode="ü" horiz-adv-x="552" d="M254-7Q93-7 93 154v195q0 37-15 50.5T24 415l2 29q34 6 133 35l20-10V143q0-105 86-105 26 0 55 19.5t51 59.5v232q0 37-15.5 50.5T301 415l3 29q34 6 133 35l19-10V62q22-19 69-27l-3-35H389l-10 63Q327-7 254-7zm-63 547q-47 0-47 52.5t47 52.5 47-52.5-47-52.5zm166 0q-46 0-46 52.5t46 52.5q48 0 48-52.5T357 540z"/><glyph unicode="ý" horiz-adv-x="504" d="M202.5-187.5Q171-218 127.5-218T58-196.5t-26 52T46-99t33.5 15T116-95q-12-17-12-33.5t9-26 27-9.5q37 0 67 91l21 65L64 394q-13 32-71 42l2 31h218l-3-30q-38-3-59-22l116-305 99 305q-22 17-59 22l2 30h195l-2-30q-66-10-73-30L259-84q-25-73-56.5-103.5zM296 646q13 17 29.5 17t27.5-10.5 11-26-25-37.5l-104-83-22 24z"/><glyph unicode="þ" horiz-adv-x="547" d="M93 567q0 37-15 50.5T24 633l2 29q34 6 133 35l20-10V410q42 66 128 66 183 0 183-232 0-122-58-186.5T264-7q-47 0-85 16v-158q24-19 69-27l-3-34H24l3 36q40 5 66 25v716zm205-134q-119 0-119-188V54q36-19 94-19t93.5 55T402 243t-25.5 144-78.5 46z"/><glyph unicode="ÿ" horiz-adv-x="504" d="M202.5-187.5Q171-218 127.5-218T58-196.5t-26 52T46-99t33.5 15T116-95q-12-17-12-33.5t9-26 27-9.5q37 0 67 91l21 65L64 394q-13 32-71 42l2 31h218l-3-30q-38-3-59-22l116-305 99 305q-22 17-59 22l2 30h195l-2-30q-66-10-73-30L259-84q-25-73-56.5-103.5zM165 540q-47 0-47 52.5t47 52.5 47-52.5-47-52.5zm166 0q-46 0-46 52.5t46 52.5q48 0 48-52.5T331 540z"/><glyph unicode="Œ" horiz-adv-x="929" d="M316-7Q43-7 43 334.5T316 676q42 0 79-9h437l9-152q-8-4-22-4t-20 1q-15 67-42 102H572V359l108 10q40 3 57 67h31V238h-31l-2 10q-5 18-9 28t-16.5 22-30.5 14l-107 11V58h209q30 42 43 113 12 2 19 2t21-2L855 0H392q-42-7-76-7zM146.5 242q3.5-39 14-78.5t29-64.5T240 58t76-16 76 16 50.5 41 29.5 65q17 65 17 151t-6 133-23 90q-36 88-144 88-124 0-156-121-17-67-17-145.5t3.5-117.5z"/><glyph unicode="œ" horiz-adv-x="818" d="M106.5 414.5Q160 476 268.5 476T430 406q54 70 157.5 70T731 424t42-154l-20-27H474v-5q0-91 20-139 24-57 104-57 33 0 65 12t47 24l15 11 26-30q-7-7-20.5-18T676 11.5 593-7Q478-7 427 59 373-7 266.5-7t-160 62T53 235t53.5 179.5zM142 235q0-104 29-150t94-46 94 46 29 150-29 149.5-94 45.5-94-45.5T142 235zm446 201q-111 0-114-156l210 7q0 78-21 113.5T588 436z"/><glyph unicode="Ÿ" horiz-adv-x="570" d="M141 0l5 37q62 7 97 27v201L73 605q-24 18-62 26l5 36h247q-4-24-5-36-52-7-87-27l125-261 128 262q-38 20-89 26 1 12 5 36h220l-6-36q-36-7-61-26L331 277V64q34-19 102-27l-4-37H141zm71 728q-47 0-47 52.5t47 52.5 47-52.5-47-52.5zm166 0q-46 0-46 52.5t46 52.5q48 0 48-52.5T378 728z"/><glyph unicode="ˆ" horiz-adv-x="285" d="M112 655q14 16 31.5 16t30.5-16l92-107-23-24-101 77-101-77-22 24z"/><glyph unicode="˜" horiz-adv-x="285" d="M47 623q26 25 56 25t66-17.5 60-17.5 61 37q17-6 33-19-12-28-38.5-54T229 551t-66 17.5-61.5 17.5T42 551q-16 4-32 19 11 28 37 53z"/><glyph horiz-adv-x="431"/><glyph horiz-adv-x="863"/><glyph horiz-adv-x="431"/><glyph horiz-adv-x="863"/><glyph horiz-adv-x="287"/><glyph horiz-adv-x="215"/><glyph horiz-adv-x="143"/><glyph horiz-adv-x="143"/><glyph horiz-adv-x="107"/><glyph horiz-adv-x="172"/><glyph horiz-adv-x="47"/><glyph unicode="‐" horiz-adv-x="332" d="M52 231v54h229v-54H52z"/><glyph unicode="‑" horiz-adv-x="332" d="M52 231v54h229v-54H52z"/><glyph unicode="‒" horiz-adv-x="332" d="M52 231v54h229v-54H52z"/><glyph unicode="–" horiz-adv-x="500" d="M38 230v54h424v-54H38z"/><glyph unicode="—" horiz-adv-x="1000" d="M44 230v54h912v-54H44z"/><glyph unicode="‘" horiz-adv-x="221" d="M153 482q-17-15-44.5-15t-45 21T46 544q0 79 80 130l24-25q-28-27-28-61.5t22-34.5q8 0 15 5 11-13 11-37t-17-39z"/><glyph unicode="’" horiz-adv-x="221" d="M68 659q17 15 45 15t45-21 17-56q0-79-80-130l-24 25q29 28 29 62t-23 34q-7 0-15-5-11 13-11 37t17 39z"/><glyph unicode="‚" horiz-adv-x="205" d="M51 11Q40 24 40 47t17 37.5T101.5 99t45-20T164 26q0-97-101-161l-24 29q20 17 32 41.5T83-13 63 14q-5 0-12-3z"/><glyph unicode="“" horiz-adv-x="375" d="M153 482q-17-15-44.5-15t-45 21T46 544q0 79 80 130l24-25q-28-27-28-61.5t22-34.5q8 0 15 5 11-13 11-37t-17-39zm164 0q-17-15-44.5-15t-45 21-17.5 56q0 79 80 130l24-25q-28-27-28-61.5t22-34.5q8 0 15 5 11-13 11-37t-17-39z"/><glyph unicode="”" horiz-adv-x="375" d="M59 659q17 15 45 15t45-21 17-56q0-79-80-130l-24 25q29 28 29 62t-23 34q-8 0-15-5-11 13-11 37t17 39zm163 0q17 15 45 15t45-21 17-56q0-79-80-130l-24 25q29 28 29 62t-23 34q-7 0-15-5-11 13-11 37t17 39z"/><glyph unicode="„" horiz-adv-x="360" d="M36 11Q25 24 25 47t17 37.5T86.5 99t45-20T149 26q0-97-101-161l-24 29q20 17 32 41.5T68-13 48 14q-5 0-12-3zm170 0q-11 13-11 36t17 37.5T256.5 99t45-20T319 26q0-97-101-161l-24 29q20 17 32 41.5T238-13t-20 27q-4 0-12-3z"/><glyph unicode="•" horiz-adv-x="443" d="M222 187q-42 0-64 27.5T136 288t22 73 64 27 64-27.5 22-74-22-73-64-26.5z"/><glyph unicode="…" horiz-adv-x="752" d="M170 109q53 0 53-58T170-7t-53 58 53 58zm240 0q53 0 53-58T410-7t-53 58 53 58zm238 0q53 0 53-58T648-7t-53 58 53 58z"/><glyph horiz-adv-x="172"/><glyph unicode="‹" horiz-adv-x="303" d="M203 43L43 241l160 198 39-24-100-174L242 68z"/><glyph unicode="›" horiz-adv-x="303" d="M260 241L100 43 61 68l99 173-99 174 39 24z"/><glyph horiz-adv-x="215"/><glyph unicode="€" horiz-adv-x="628" d="M390 675q90 0 142-53 30-29 30-66t-16.5-58-38.5-21q-43 0-51 37 14 24 14 50.5T446.5 606 387 621q-77 0-113-55.5T233 384h168q5-18 5-34l-7-6H232v-11q0-35 1-51h140q5-18 5-34l-7-6H235q9-104 44.5-150T387 46q36 0 59.5 15.5t23.5 42-14 50.5q4 17 18 27t35 10 37-20.5 16-58T532 46Q480-7 390-7 278-7 217.5 54T143 242H71q-5 18-5 33l6 7h68q-1 16-1 51v11H71q-5 18-5 33l6 7h68q18 291 250 291z"/><glyph unicode="™" horiz-adv-x="679" d="M7 574v83h246v-83h-28l-18 54-51 3V389l45-12-3-20H61l3 20 42 12v242l-51-3-20-54H7zm368 83l92-230 89 230h103l-2-19-43-12V389l45-12-2-20H520l4 20 41 12v200l-86-232h-36l-91 237V389l45-12-2-20H269l2 20 42 12v237l-44 12 2 19h104z"/><glyph unicode="◼" horiz-adv-x="465" d="M0 465h465V0H0v465z"/><glyph unicode="ﬁ" horiz-adv-x="581" d="M399 352q0 37-15 51t-54 14H183V62q24-17 81-28l-3-34H28l4 36q41 6 66 26v355H24l-5 35q54 5 79 18v54q0 91 52 138t153.5 47T462 679V568h-55q-10 54-36 79t-71 25q-117 0-117-160v-42h301V61q26-18 70-27l-4-34H330l3 36q41 6 66 25v291z"/><glyph unicode="ﬂ" horiz-adv-x="574" d="M286 708q45 0 100-15.5t81-15.5l15-10V60q24-18 70-27l-4-34H328l3 36q42 7 66 25v494q0 62-24.5 90T285 672t-82.5-45T183 469h131v-52H183V61q21-16 75-27l-3-34H27l4 36q43 7 66 25v356H23l-5 35q51 5 79 17v27q0 212 189 212z"/></font>
</defs>
</svg>
